<?xml version="1.0" standalone="no"?>
<!DOCTYPE svg PUBLIC "-//W3C//DTD SVG 1.1//EN" "http://www.w3.org/Graphics/SVG/1.1/DTD/svg11.dtd">
<svg xmlns="http://www.w3.org/2000/svg">
    <defs>
        <font id="Karla" horiz-adv-x="1049">
            <font-face
                    font-family="Karla SemiBold"
                    units-per-em="2000"
                    panose-1="2 11 0 4 3 5 3 3 0 3"
                    ascent="1834"
                    descent="-504"
                    alphabetic="0"/>
            <glyph unicode=" " horiz-adv-x="497"/>
            <glyph unicode="!" horiz-adv-x="577"
                   d="M204 413L180 1305H410L384 413H204ZM295 -18Q229 -18 187 23T144 127Q144 188 186 230T295 272Q360 272 404 230T448 127Q448 64 404 23T295 -18Z"/>
            <glyph unicode="&quot;" horiz-adv-x="720"
                   d="M472 904L444 1370H659L630 904H472ZM89 904L62 1370H276L247 904H89Z"/>
            <glyph unicode="#" horiz-adv-x="1326" d="M272 65L300 331H112L125 472H315L350 800H160L174 940H365L393 1204H593L565 940H847L876 1204H1074L1047 940H1238L1224 800H1031L998 472H1190L1176 331H983L955 65H754L783 331H500L472 65H272ZM515 472H797L832
800H550L515 472Z"/>
            <glyph unicode="$" horiz-adv-x="1344" d="M688 -27Q577 -27 477 -1T299 77T177 209T132 398H341Q341 317 384 266T507 192T698 168Q792 168 852 192T942 258T972 347Q972 409 932 453T815 524L677 575V761L916 678Q1063 628 1137 549T1212 341Q1212 249 1156
165T984 27T688 -27ZM596 -196V1460H750V-196H596ZM639 573L506 618Q339 674 250 751T160 964Q160 1118 290 1214T667 1311Q895 1311 1015 1212T1164 943H953Q938 1023 865 1075T663 1128Q528 1128 460 1080T391 956Q391 899 426 864T536 803L639 762V573Z"/>
            <glyph unicode="%" horiz-adv-x="1507" d="M215 0L1085 1286H1301L432 0H215ZM1129 -21Q1059 -21 998 12T900 111T862 278Q862 378 899 444T998 544T1129 577Q1201 577 1263 544T1362 445T1400 278Q1400 178 1363 112T1263 12T1129 -21ZM1129 118Q1177 118 1207
154T1237 278Q1237 363 1207 401T1129 439Q1081 439 1052 401T1023 278Q1023 191 1052 155T1129 118ZM389 715Q319 715 258 748T160 847T122 1014Q122 1112 159 1178T258 1277T389 1311Q461 1311 523 1278T622 1178T660 1014Q660 914 623 848T523 748T389 715ZM389
852Q436 852 466 889T496 1014Q496 1099 466 1136T389 1174Q341 1174 312 1137T283 1014Q283 927 312 890T389 852Z"/>
            <glyph unicode="&amp;" horiz-adv-x="1901" d="M1499 -27Q1408 -27 1329 12T1160 134L520 710Q454 768 414 842T373 998Q373 1085 423 1155T567 1266T797 1307Q925 1307 1017 1266T1159 1156T1209 1002Q1209 915 1167 845T1039 719T822 616L709 722Q805 761 863
800T947 882T974 977Q974 1041 925 1082T797 1124Q704 1124 656 1078T607 967Q607 919 631 876T706 785L1331 226Q1369 194 1400 178T1478 161Q1527 161 1562 197T1602 314H1797Q1792 157 1718 65T1499 -27ZM705 -27Q596 -27 501 2T335 85T223 210T182 364Q182
518 306 597T656 694L721 576Q562 562 489 512T416 376Q416 318 450 271T550 195T708 166Q822 166 919 212T1097 340T1244 533T1359 771L1504 691Q1451 534 1374 403T1196 175T973 26T705 -27Z"/>
            <glyph unicode="&apos;" horiz-adv-x="334" d="M60 1354H274L245 888H87L60 1354Z"/>
            <glyph unicode="(" horiz-adv-x="774"
                   d="M558 1493L711 1382Q596 1263 520 1142T405 893T367 630Q367 427 453 243T711 -119L558 -234Q349 -46 248 172T146 630Q146 870 247 1088T558 1493Z"/>
            <glyph unicode=")" horiz-adv-x="774"
                   d="M217 -234L62 -119Q234 58 321 242T408 630Q408 766 369 893T254 1141T62 1382L217 1493Q425 1307 527 1089T629 630Q629 470 584 320T447 30T217 -234Z"/>
            <glyph unicode="*" horiz-adv-x="820"
                   d="M155 883L329 1048L103 1125L160 1255L362 1153L340 1397H488L466 1153L668 1259L725 1126L502 1050L677 883L567 787L416 991L262 787L155 883Z"/>
            <glyph unicode="+" horiz-adv-x="1078" d="M433 982H645V584H1042V398H645V0H433V398H36V584H433V982Z"/>
            <glyph unicode="," horiz-adv-x="481"
                   d="M209 -257L51 -177Q115 -145 162 -105T225 -10Q173 -1 137 31T100 117Q100 172 141 210T248 248Q328 248 375 191T422 55Q422 -35 366 -120T209 -257Z"/>
            <glyph unicode="-" horiz-adv-x="732" d="M87 504V690H644V504H87Z"/>
            <glyph unicode="." horiz-adv-x="409"
                   d="M51 125Q51 187 93 229T201 272Q267 272 311 230T356 125Q356 64 312 23T201 -18Q136 -18 94 23T51 125Z"/>
            <glyph unicode="/" horiz-adv-x="920" d="M108 -155L619 1482H837L323 -155H108Z"/>
            <glyph unicode="0" horiz-adv-x="1243" d="M623 -27Q466 -27 348 46T163 268T96 642Q96 868 162 1016T347 1238T623 1311Q777 1311 895 1238T1080 1017T1147 642Q1147 417 1081 269T896 47T623 -27ZM623 168Q769 168 848 290T927 642Q927 871 848 994T623 1118Q476
1118 397 995T317 642Q317 413 396 291T623 168Z"/>
            <glyph unicode="1" horiz-adv-x="698"
                   d="M343 1293H506V0H293V1039Q242 1012 191 998T87 983V1188Q154 1196 217 1220T343 1293Z"/>
            <glyph unicode="2" horiz-adv-x="1195" d="M122 0V212Q122 321 156 396T255 522T416 611L677 711Q766 747 809 801T853 935Q853 1016 795 1070T631 1124Q528 1124 460 1075T381 931H144Q149 1057 212 1141T383 1268T628 1311Q756 1311 859 1262T1022 1127T1083
925Q1083 826 1047 751T939 621T760 523L496 419Q413 388 374 347T335 240V195H1074V0H122Z"/>
            <glyph unicode="3" horiz-adv-x="1226" d="M617 -27Q517 -27 424 0T256 82T138 216T95 401H317Q321 328 360 276T465 196T617 168Q744 168 815 228T887 378Q887 437 858 480T767 546T609 570H446V738H577Q701 738 771 790T841 931Q841 1010 782 1064T607 1118Q514
1118 441 1080T346 946H124Q138 1075 202 1155T369 1273T598 1311Q735 1311 841 1266T1009 1140T1071 954Q1071 855 1016 783T855 674Q973 635 1045 557T1118 359Q1118 246 1056 159T882 23T617 -27Z"/>
            <glyph unicode="4" horiz-adv-x="1169"
                   d="M709 1301H913V475H1137V293H913V0H702V293H46V455L709 1301ZM712 981L299 455H712V981Z"/>
            <glyph unicode="5" horiz-adv-x="1154" d="M585 -27Q451 -27 347 20T182 157T119 377H334Q334 273 406 221T585 168Q702 168 773 242T845 424Q845 637 565 637H186L244 1286H999V1091H416L458 1155L419 754L399 775Q447 786 511 791T624 797Q826 797 945 701T1064
424Q1064 298 1005 196T839 33T585 -27Z"/>
            <glyph unicode="6" horiz-adv-x="1194" d="M632 -27Q473 -27 352 57T164 288T96 620Q96 840 164 994T356 1230T647 1311Q771 1311 866 1265T1016 1135T1078 941H850Q838 1023 791 1070T654 1118Q494 1118 402 979T310 599Q310 567 311 528T318 454Q333 580 386
652T518 754T681 785Q801 785 893 733T1038 589T1091 378Q1091 257 1033 166T872 24T632 -27ZM632 168Q732 168 801 228T870 386Q870 490 801 548T632 607Q566 607 513 579T429 501T397 386Q397 288 465 228T632 168Z"/>
            <glyph unicode="7" horiz-adv-x="979" d="M97 0L693 1081H48V1286H944V1083L383 0H97Z"/>
            <glyph unicode="8" horiz-adv-x="1275" d="M637 -27Q475 -27 355 22T168 155T101 347Q101 440 150 505T285 606T478 642Q516 642 549 636T626 619V565Q537 565 468 538T361 465T322 367Q322 305 364 260T477 192T637 168Q794 168 873 212T953 325Q953 380 914
418T804 483L441 622Q375 647 307 692T192 804T145 963Q145 1068 203 1146T371 1267T637 1311Q776 1311 887 1264T1063 1134T1128 946Q1128 870 1087 805T969 701T781 661Q746 661 716 666T648 684V747Q718 747 777 770T871 834T907 932Q907 988 873 1029T778 1094T637
1118Q561 1118 500 1096T402 1038T366 954Q366 900 403 866T510 805L881 661Q1022 607 1098 535T1174 336Q1174 230 1111 148T928 20T637 -27Z"/>
            <glyph unicode="9" horiz-adv-x="1203" d="M586 -27Q455 -27 351 25T187 169T126 381H348Q352 283 415 226T580 168Q691 168 760 232T860 413T892 685Q892 718 891 748T884 812Q867 703 815 634T687 533T521 501Q403 501 311 553T167 696T114 906Q114 1028 171
1119T332 1260T569 1311Q683 1311 781 1265T951 1134T1065 930T1106 665Q1106 453 1049 298T877 58T586 -27ZM571 679Q636 679 690 707T776 784T808 896Q808 998 738 1057T569 1116Q470 1116 402 1057T334 896Q334 795 402 737T571 679Z"/>
            <glyph unicode=":" horiz-adv-x="517"
                   d="M104 168Q104 230 146 272T254 315Q320 315 364 273T409 168Q409 107 365 66T254 25Q189 25 147 66T104 168ZM104 769Q104 831 146 873T254 916Q320 916 364 874T409 769Q409 708 365 667T254 626Q189 626 147 667T104 769Z"/>
            <glyph unicode=";" horiz-adv-x="589" d="M267 -257L109 -177Q173 -145 220 -105T283 -10Q231 -1 195 31T158 117Q158 172 199 210T306 248Q386 248 433 191T480 55Q480 -35 424 -120T267 -257ZM168 769Q168 831 210 873T318 916Q384 916 428 874T473 769Q473
708 429 667T318 626Q253 626 211 667T168 769Z"/>
            <glyph unicode="&lt;" horiz-adv-x="976"
                   d="M745 1208L885 1045L240 589V679L885 226L745 63L88 539V729L745 1208Z"/>
            <glyph unicode="=" horiz-adv-x="1001" d="M158 388H843V204H158V388ZM158 798H843V613H158V798Z"/>
            <glyph unicode="&gt;" horiz-adv-x="976"
                   d="M232 63L91 226L734 679V589L91 1045L232 1208L889 729V539L232 63Z"/>
            <glyph unicode="?" horiz-adv-x="1023" d="M351 368V451Q351 538 371 594T434 689T551 766Q615 799 651 827T702 887T717 961Q717 1029 663 1073T513 1118Q403 1118 344 1071T274 943H51Q63 1109 178 1210T505 1311Q643 1311 743 1264T897 1137T951 959Q951 855
899 784T734 655Q668 620 631 591T579 525T564 433V368H351ZM463 -27Q396 -27 354 14T312 116Q312 177 354 219T462 262Q528 262 572 220T617 117Q617 57 573 15T463 -27Z"/>
            <glyph unicode="@" horiz-adv-x="2002" d="M1123 -413Q899 -413 717 -350T405 -171T204 100T134 440Q134 629 205 787T405 1063T706 1246T1081 1311Q1270 1311 1421 1255T1681 1100T1846 868T1904 582Q1904 451 1865 348T1758 173T1607 64T1434 26Q1346 26 1288
62T1213 161L1203 193Q1169 124 1110 75T954 26Q863 26 787 72T665 202T619 396Q619 496 656 583T759 736T910 839T1089 877Q1219 877 1294 800T1370 567V293Q1370 239 1388 215T1441 190Q1491 190 1548 233T1647 363T1688 579Q1688 736 1618 858T1414 1050T1090
1120Q925 1120 789 1066T555 916T403 691T350 414Q350 222 440 75T704 -156T1123 -240V-413ZM989 198Q1062 198 1109 241T1198 362V566Q1198 633 1173 673T1086 713Q1024 713 961 674T855 564T812 398Q812 298 862 248T989 198Z"/>
            <glyph unicode="A" horiz-adv-x="1222"
                   d="M46 0L485 1286H751L1175 0H950L856 292H369L272 0H46ZM423 454H804L615 1031L423 454Z"/>
            <glyph unicode="B" horiz-adv-x="1281" d="M191 0V1286H699Q846 1286 942 1240T1087 1117T1135 946Q1135 837 1074 759T900 649Q974 635 1032 595T1123 493T1157 355Q1157 293 1135 230T1062 115T922 32T701 0H191ZM404 186H696Q817 186 872 236T928 367Q928 449
870 499T696 549H404V186ZM404 1102V734H690Q799 734 857 783T916 921Q916 1004 859 1053T692 1102H404Z"/>
            <glyph unicode="C" horiz-adv-x="1255" d="M652 -27Q483 -27 358 55T165 288T96 647Q96 864 168 1012T366 1235T652 1311Q872 1311 998 1204T1163 925L935 882Q901 988 828 1053T652 1118Q562 1118 488 1066T370 909T326 647Q326 502 363 394T473 227T652 168Q785
168 860 239T935 422H1163Q1163 280 1101 180T924 27T652 -27Z"/>
            <glyph unicode="D" horiz-adv-x="1358"
                   d="M191 1286H596Q792 1286 938 1207T1165 984T1247 642Q1247 448 1166 304T938 80T596 0H191V1286ZM404 1094V190H596Q726 190 820 249T966 410T1018 642Q1018 774 967 875T821 1035T596 1094H404Z"/>
            <glyph unicode="E" horiz-adv-x="1159" d="M189 0V1286H1005V1102H402V737H969V553H402V186H1005V0H189Z"/>
            <glyph unicode="F" horiz-adv-x="1080" d="M191 0V1286H993V1102H404V738H946V556H404V0H191Z"/>
            <glyph unicode="G" horiz-adv-x="1335" d="M655 -27Q499 -27 373 55T171 286T96 634Q96 794 142 919T272 1132T465 1265T703 1311Q875 1311 995 1237T1187 1005L972 950Q917 1033 848 1075T693 1118Q592 1118 509 1060T375 893T325 634Q325 496 368 391T489 227T672
168Q759 168 827 207T934 320T974 502H1025Q1025 341 987 222T867 38T655 -27ZM1006 0L974 289V509L675 516V653H1179V0H1006Z"/>
            <glyph unicode="H" horiz-adv-x="1390" d="M191 1286H404V741H986V1286H1198V0H986V555H404V0H191V1286Z"/>
            <glyph unicode="I" horiz-adv-x="595" d="M191 0V1286H404V0H191Z"/>
            <glyph unicode="J" horiz-adv-x="864"
                   d="M27 56V271Q105 225 179 203T320 181Q411 181 452 234T493 393V1286H707V393Q707 241 661 149T531 15T337 -27Q251 -27 174 -4T27 56Z"/>
            <glyph unicode="K" horiz-adv-x="1281"
                   d="M933 1286H1226L385 424V717L933 1286ZM624 752L1261 0H986L475 613L624 752ZM191 1286H406V0H191V1286Z"/>
            <glyph unicode="L" horiz-adv-x="973" d="M404 1286V186H945V0H191V1286H404Z"/>
            <glyph unicode="M" horiz-adv-x="1733"
                   d="M191 1286H496L881 471H862L1247 1286H1542V0H1327V1046H1361L941 147H801L383 1041H404V0H191V1286Z"/>
            <glyph unicode="N" horiz-adv-x="1415"
                   d="M187 1286H425L1028 329H1011V1286H1224V0H1003L366 1007H400V0H187V1286Z"/>
            <glyph unicode="O" horiz-adv-x="1344" d="M672 -27Q504 -27 374 48T170 272T96 643Q96 869 170 1017T374 1238T672 1311Q841 1311 971 1237T1174 1014T1248 643Q1248 418 1175 269T971 47T672 -27ZM672 167Q836 167 932 289T1028 645Q1028 871 932 995T672 1120Q510
1120 414 995T317 643Q317 411 413 289T672 167Z"/>
            <glyph unicode="P" horiz-adv-x="1146"
                   d="M185 0V1286H628Q843 1286 962 1179T1081 879Q1081 689 962 582T628 475H400V0H185ZM400 661H628Q743 661 802 722T862 879Q862 978 803 1040T628 1102H400V661Z"/>
            <glyph unicode="Q" horiz-adv-x="1352" d="M672 -27Q504 -27 374 48T170 272T96 643Q96 869 170 1017T374 1238T672 1311Q841 1311 971 1237T1174 1014T1248 643Q1248 418 1175 269T971 47T672 -27ZM1063 -352Q968 -352 888 -302T745 -157L612 40L786 115L902
-61Q932 -104 969 -121T1043 -141Q1094 -141 1140 -128T1237 -93V-316Q1191 -335 1149 -343T1063 -352ZM672 167Q836 167 932 289T1028 645Q1028 871 932 995T672 1120Q510 1120 414 995T317 643Q317 411 413 289T672 167Z"/>
            <glyph unicode="R" horiz-adv-x="1269"
                   d="M191 0V1286H658Q886 1286 1006 1179T1127 895Q1127 722 1007 615T658 508H404V0H191ZM893 0L545 597H773L1171 0H893ZM404 653H638Q771 653 840 715T909 877Q909 979 846 1040T658 1102H404V653Z"/>
            <glyph unicode="S" horiz-adv-x="1256" d="M628 -27Q496 -27 385 19T206 160T132 398H341Q341 319 380 268T484 193T626 168Q704 168 763 190T856 251T890 341Q890 411 848 451T716 523L470 618Q318 676 238 752T158 964Q158 1118 279 1214T620 1311Q830 1311
946 1213T1078 943H869Q855 1023 796 1070T620 1118Q513 1118 452 1073T391 958Q391 899 429 865T549 801L826 697Q968 644 1045 560T1123 348Q1123 236 1066 152T898 20T628 -27Z"/>
            <glyph unicode="T" horiz-adv-x="1045" d="M12 1102V1286H1034V1102H582L629 1151V0H416V1151L464 1102H12Z"/>
            <glyph unicode="U" horiz-adv-x="1359"
                   d="M168 1286H381V480Q381 315 464 242T681 168Q813 168 896 241T979 480V1286H1192V480Q1192 318 1131 205T955 32T681 -27Q521 -27 407 32T230 204T168 480V1286Z"/>
            <glyph unicode="V" horiz-adv-x="1182" d="M579 232L923 1286H1147L700 0H477L36 1286H262L602 232H579Z"/>
            <glyph unicode="W" horiz-adv-x="1863"
                   d="M22 1286H261L578 188H523L840 1187H984L1308 202H1257L1600 1286H1839L1394 0H1170L906 791H930L663 0H439L22 1286Z"/>
            <glyph unicode="X" horiz-adv-x="1343"
                   d="M77 0L530 640L74 1286H335L673 805L970 1286H1229L791 643L1265 0H999L650 473L334 0H77Z"/>
            <glyph unicode="Y" horiz-adv-x="1151"
                   d="M15 1286H269L593 713H549L883 1286H1135L675 530V0H462V530L15 1286Z"/>
            <glyph unicode="Z" horiz-adv-x="1236"
                   d="M146 0V186L905 1166V1088L146 1091V1286H1111V1102L392 169L384 198L1111 195V0H146Z"/>
            <glyph unicode="[" horiz-adv-x="683" d="M191 -259V1546H656V1353H404V-67H656V-259H191Z"/>
            <glyph unicode="\" horiz-adv-x="920" d="M84 1482L595 -155H813L299 1482H84Z"/>
            <glyph unicode="]" horiz-adv-x="641" d="M451 -259V1546H-14V1353H238V-67H-14V-259H451Z"/>
            <glyph unicode="^" horiz-adv-x="1007" d="M41 451L423 1196H594L977 451H741L468 1032H549L276 451H41Z"/>
            <glyph unicode="_" horiz-adv-x="1511" d="M110 0V186H1403V0H110Z"/>
            <glyph unicode="`" horiz-adv-x="699" d="M500 1119L96 1453L240 1570L603 1203L500 1119Z"/>
            <glyph unicode="a" horiz-adv-x="1150" d="M801 0L774 228V624Q774 734 729 785T581 836Q523 836 479 819T410 769T385 686H151Q151 795 203 862T352 961T581 993Q703 993 794 954T936 831T987 617V0H801ZM481 -27Q358 -27 277 16T154 129T113 279Q113 373 161
435T297 527T501 558Q580 558 651 545T794 511V384Q737 404 669 415T543 426Q455 426 398 393T340 279Q340 221 386 179T532 137Q607 137 661 170T744 253T774 353H825Q825 251 786 165T669 26T481 -27Z"/>
            <glyph unicode="b" horiz-adv-x="1216" d="M670 -27Q578 -27 502 23T380 174T335 424H404Q404 345 438 287T527 198T641 166Q712 166 769 205T859 317T893 488Q893 583 860 653T770 763T639 802Q578 802 524 772T437 686T404 547H335Q335 691 378 790T499 941T685
993Q802 993 898 931T1051 756T1109 488Q1109 332 1050 217T891 37T670 -27ZM191 0V1370H404V235L332 0H191Z"/>
            <glyph unicode="c" horiz-adv-x="1051" d="M549 -27Q430 -27 327 36T160 214T96 484Q96 647 159 761T326 934T549 993Q640 993 710 964T831 886T911 777T951 653L735 645Q716 714 669 758T547 802Q487 802 433 768T346 664T312 484Q312 381 343 310T427 203T547
166Q644 166 689 212T735 339H951Q951 237 904 154T767 22T549 -27Z"/>
            <glyph unicode="d" horiz-adv-x="1216" d="M544 -27Q424 -27 325 37T166 216T107 488Q107 642 164 755T317 931T530 993Q637 993 716 942T837 791T880 547H810Q810 629 777 685T691 772T576 802Q503 802 446 763T355 654T322 488Q322 390 355 318T446 206T575
166Q634 166 687 197T775 287T810 424H880Q880 275 835 175T713 24T544 -27ZM849 0L810 235V1370H1025V0H849Z"/>
            <glyph unicode="e" horiz-adv-x="1051" d="M544 -27Q420 -27 319 37T157 216T96 483Q96 642 156 756T317 932T544 993Q658 993 740 947T873 823T941 647T946 443H267V562H797L751 532Q754 583 746 634T716 728T652 797T547 823Q470 823 417 784T336 678T308 531V445Q308
358 334 291T412 184T544 145Q620 145 670 181T734 288H951Q936 194 881 123T740 13T544 -27Z"/>
            <glyph unicode="f" horiz-adv-x="721"
                   d="M245 0V1093Q245 1195 285 1259T391 1354T535 1385Q581 1385 630 1379T727 1361L685 1196Q659 1206 632 1211T578 1217Q549 1217 522 1206T477 1167T460 1089V0H245ZM98 824V966H644V824H98Z"/>
            <glyph unicode="g" horiz-adv-x="1154" d="M554 -499Q393 -499 278 -455T100 -337T38 -177Q38 -72 115 -15T310 42L458 -19Q357 -19 302 -58T247 -167Q247 -239 328 -284T554 -329Q661 -329 739 -298T861 -216T905 -109Q905 -71 879 -45T797 -19H458Q360 -19 283
12T160 95T115 210Q115 271 149 314T240 381T368 405L419 333Q390 333 362 321T317 286T299 227Q299 185 334 159T458 132H797Q946 132 1031 75T1116 -96Q1116 -197 1048 -289T854 -440T554 -499ZM571 294Q457 294 364 337T216 459T160 643Q160 749 215 828T364
950T571 993Q682 993 774 950T923 828T980 643Q980 538 924 460T775 338T571 294ZM572 443Q669 443 719 500T770 643Q770 733 720 788T571 843Q476 843 424 788T371 643Q371 558 423 501T572 443ZM906 838L808 891Q808 977 846 1042T950 1143T1098 1179L1086 973Q999
973 953 940T906 838Z"/>
            <glyph unicode="h" horiz-adv-x="1235"
                   d="M861 0V566Q861 683 805 742T656 802Q581 802 524 761T436 638T404 439H331Q331 622 377 745T508 930T712 993Q830 993 910 940T1032 791T1073 566V0H861ZM191 0V1370H404V0H191Z"/>
            <glyph unicode="i" horiz-adv-x="639"
                   d="M314 1158Q251 1158 216 1192T180 1285Q180 1342 215 1376T314 1411Q376 1411 412 1377T448 1285Q448 1226 412 1192T314 1158ZM208 0V969H421V0H208Z"/>
            <glyph unicode="j" horiz-adv-x="658" d="M331 1158Q270 1158 234 1192T198 1285Q198 1342 234 1376T331 1411Q393 1411 429 1377T465 1285Q465 1226 429 1192T331 1158ZM119 -499Q43 -499 -23 -482T-158 -434L-153 -249Q-99 -277 -43 -295T69 -313Q146 -313 186
-268T227 -118V970H439V-122Q439 -325 354 -412T119 -499Z"/>
            <glyph unicode="k" horiz-adv-x="1167"
                   d="M191 0V1370H404V0H191ZM374 587L811 966H1101L374 365V587ZM864 0L425 614L630 661L1125 0H864Z"/>
            <glyph unicode="l" horiz-adv-x="595" d="M191 0V1370H404V0H191Z"/>
            <glyph unicode="m" horiz-adv-x="1890" d="M1516 0V566Q1516 683 1461 742T1313 802Q1199 802 1136 712T1073 447H982Q982 593 1010 696T1089 865T1212 962T1369 993Q1487 993 1567 940T1689 791T1731 566V0H1516ZM191 0V966H376L400 793Q447 891 526 942T712
993Q830 993 910 940T1032 791T1073 566V0H861V566Q861 683 805 742T656 802Q581 802 524 761T436 638T404 439V0H191Z"/>
            <glyph unicode="n" horiz-adv-x="1235"
                   d="M861 0V566Q861 683 805 742T656 802Q581 802 524 761T436 638T404 439H331Q331 622 377 745T508 930T712 993Q830 993 910 940T1032 791T1073 566V0H861ZM191 0V966H376L404 766V0H191Z"/>
            <glyph unicode="o" horiz-adv-x="1121" d="M562 -27Q430 -27 325 30T158 200T96 482Q96 654 158 767T325 936T562 993Q692 993 797 937T963 767T1025 482Q1025 313 964 200T797 30T562 -27ZM555 159Q632 159 689 196T779 306T811 482Q811 641 748 725T569 809Q492
809 434 772T344 662T312 482Q312 326 376 243T555 159Z"/>
            <glyph unicode="p" horiz-adv-x="1205" d="M662 -27Q555 -27 479 19T363 159T323 391H404Q404 319 436 269T520 193T632 166Q695 166 755 201T854 306T893 484Q893 583 860 654T768 764T636 802Q574 802 521 773T436 690T404 556H323Q323 705 370 802T496 946T670
993Q784 993 884 932T1046 758T1109 484Q1109 323 1046 209T881 34T662 -27ZM191 -473V966H366L404 731V-473H191Z"/>
            <glyph unicode="q" horiz-adv-x="1205" d="M544 -27Q427 -27 325 34T159 209T96 484Q96 644 158 757T320 932T534 993Q629 993 708 946T834 802T882 556H800Q800 635 769 689T685 773T570 802Q496 802 438 764T346 655T312 484Q312 377 350 307T449 201T573 166Q631
166 683 192T767 269T800 391H846Q846 267 815 173T717 26T544 -27ZM1087 -499Q931 -459 866 -374T800 -138V731L874 966H1012V-153Q1012 -215 1024 -250T1067 -305T1150 -342L1087 -499Z"/>
            <glyph unicode="r" horiz-adv-x="767"
                   d="M191 0V969H404V0H191ZM349 428Q349 616 389 739T501 923T663 984Q690 984 713 981T758 970L753 758Q726 765 695 769T640 774Q560 774 508 734T430 616T404 428H349Z"/>
            <glyph unicode="s" horiz-adv-x="1054" d="M547 -27Q408 -27 310 12T159 122T105 293H303Q307 215 365 179T523 142Q578 142 621 158T688 203T713 267Q713 313 680 339T575 386L371 457Q255 497 193 564T131 724Q131 845 239 919T529 993Q713 993 813 914T916
715H713Q708 767 663 796T529 826Q448 826 402 792T356 713Q356 635 489 597L707 517Q823 479 885 419T948 267Q948 192 898 125T758 15T547 -27Z"/>
            <glyph unicode="t" horiz-adv-x="778"
                   d="M509 -27Q425 -27 357 4T247 100T206 263V1226H419V270Q419 142 540 142Q576 142 612 150T694 175L725 25Q670 3 618 -12T509 -27ZM65 824V966H694V824H65Z"/>
            <glyph unicode="u" horiz-adv-x="1242"
                   d="M838 969H1051V0H838V969ZM168 969H381V373Q381 272 431 220T572 168Q647 168 707 207T803 322T838 505H900Q900 332 854 216T726 41T535 -18Q431 -18 348 20T216 139T168 353V969Z"/>
            <glyph unicode="v" horiz-adv-x="1029" d="M27 966H272L524 182H505L757 966H1001L634 0H395L27 966Z"/>
            <glyph unicode="w" horiz-adv-x="1497"
                   d="M27 966H249L469 212H446L656 916H846L1055 210H1032L1252 966H1465L1147 0H938L730 662H763L558 0H348L27 966Z"/>
            <glyph unicode="x" horiz-adv-x="1083"
                   d="M38 0L411 482L38 969H299L547 643L784 969H1044L672 482L1043 0H784L533 327L299 0H38Z"/>
            <glyph unicode="y" horiz-adv-x="985"
                   d="M40 966H281L554 186H514L742 966H959L590 -181Q537 -345 456 -422T255 -499Q188 -499 125 -483T-3 -433V-244Q51 -280 102 -296T205 -313Q256 -313 293 -284T356 -206T401 -95L430 0L40 966Z"/>
            <glyph unicode="z" horiz-adv-x="978" d="M112 0V173L633 794H112V966H869V794L361 173H869V0H112Z"/>
            <glyph unicode="{" horiz-adv-x="757" d="M747 -302Q573 -302 465 -238T307 -63T257 192V374Q257 458 243 490T190 523H144V737H190Q229 737 243 769T257 886V1070Q257 1214 307 1324T465 1498T747 1561V1370Q600 1370 534 1295T468 1067V877Q468 781 434 722T345
635V626Q399 599 433 539T468 384V194Q468 41 534 -34T747 -109V-302Z"/>
            <glyph unicode="|" horiz-adv-x="595" d="M191 -244V1529H404V-244H191Z"/>
            <glyph unicode="}" horiz-adv-x="757" d="M10 -302Q184 -302 292 -238T450 -63T500 192V374Q500 458 514 490T567 523H613V737H567Q528 737 514 769T500 886V1070Q500 1214 450 1324T292 1498T10 1561V1370Q157 1370 223 1295T289 1067V877Q289 781 323 722T412
635V626Q358 599 324 539T289 384V194Q289 41 223 -34T10 -109V-302Z"/>
            <glyph unicode="~" horiz-adv-x="1108" d="M226 419L112 481Q146 604 205 674T355 744Q397 744 445 731T567 688Q643 658 682 647T750 635Q789 635 823 663T881 747L995 674Q956 552 889 493T735 433Q702 433 654 445T532 489Q457 515 420 527T353 540Q316 540
284 513T226 419Z"/>
            <glyph unicode="&#xa0;" horiz-adv-x="497"/>
            <glyph unicode="&#xa1;" horiz-adv-x="577"
                   d="M204 870L180 -22H410L384 870H204ZM295 1301Q229 1301 187 1260T144 1156Q144 1095 186 1053T295 1011Q360 1011 404 1053T448 1156Q448 1219 404 1260T295 1301Z"/>
            <glyph unicode="&#xa2;" horiz-adv-x="1048" d="M457 -214V35H634V-214H457ZM457 941V1165H634V941H457ZM549 -27Q430 -27 327 36T160 214T96 484Q96 647 159 761T326 934T549 993Q640 993 710 964T831 886T911 777T951 653L735 645Q716 714 669 758T547 802Q487
802 433 768T346 664T312 484Q312 381 343 310T427 203T547 166Q644 166 689 212T735 339H951Q951 237 904 154T767 22T549 -27Z"/>
            <glyph unicode="&#xa3;" horiz-adv-x="1182" d="M105 129V190Q179 190 210 233T242 366V881Q242 1021 290 1116T427 1261T639 1311Q797 1311 892 1227T1011 975H801Q792 1045 748 1081T639 1118Q554 1118 505 1061T455 881V380Q455 250 380 190T105 129ZM43 0V190H681Q780
190 824 229T879 350H1109Q1103 186 1008 93T683 0H43ZM71 554V698H803V554H71Z"/>
            <glyph unicode="&#xa4;" horiz-adv-x="1200" d="M600 219Q485 219 390 275T238 427T181 638Q181 754 238 849T390 1000T600 1056Q716 1056 810 1000T961 849T1017 638Q1017 522 961 427T811 276T600 219ZM600 411Q663 411 714 441T796 523T827 638Q827 702 797
753T715 835T600 865Q537 865 486 835T404 754T373 638Q373 575 403 524T485 442T600 411ZM851 796L757 890L977 1109L1072 1017L851 796ZM338 806L128 1015L221 1109L430 900L338 806ZM862 470L1072 261L979 166L770 376L862 470ZM338 470L430 376L221 166L128
261L338 470Z"/>
            <glyph unicode="&#xa5;" horiz-adv-x="1151"
                   d="M462 0V530L15 1286H269L593 713H549L883 1286H1135L675 530V0H462ZM225 179V301H917V179H225ZM225 389V511H917V389H225Z"/>
            <glyph unicode="&#xa6;" horiz-adv-x="595" d="M191 739V1529H404V739H191ZM191 -244V546H404V-244H191Z"/>
            <glyph unicode="&#xa7;" horiz-adv-x="1200" d="M632 460Q687 460 730 476T797 521T822 588Q822 631 788 656T684 703L479 775Q364 813 302 880T240 1039Q240 1162 347 1236T635 1310Q823 1310 922 1231T1025 1032H822Q818 1086 771 1115T645 1144Q556 1144 511
1109T465 1029Q465 955 598 915L816 835Q931 796 994 737T1057 589Q1057 511 1007 443T867 333T656 291L632 460ZM567 748Q486 748 440 712T394 628Q394 555 527 513L745 434Q860 396 923 336T986 187Q986 110 938 42T796 -68T567 -110Q443 -110 347 -72T197 39T143
210H341Q343 133 402 96T551 59Q645 59 698 95T751 186Q751 229 717 255T612 303L409 374Q291 413 230 480T169 641Q169 769 277 840T567 912V748Z"/>
            <glyph unicode="&#xa8;" horiz-adv-x="823" d="M596 1141Q542 1141 504 1176T466 1264Q466 1317 504 1353T596 1389Q652 1389 689 1353T727 1264Q727 1212 690 1177T596 1141ZM226 1141Q169 1141 133 1176T96 1262Q96 1317 132 1352T226 1387Q283 1387 320 1352T358
1262Q358 1212 321 1177T226 1141Z"/>
            <glyph unicode="&#xa9;" horiz-adv-x="1409" d="M705 -12Q569 -12 450 39T241 180T99 389T48 644Q48 780 99 898T240 1107T450 1249T705 1301Q840 1301 959 1250T1168 1108T1310 899T1361 644Q1361 508 1310 389T1169 180T959 39T705 -12ZM705 96Q819 96 918 138T1092
256T1210 431T1253 644Q1253 758 1211 857T1093 1031T918 1150T705 1193Q592 1193 493 1150T318 1032T199 857T156 644Q156 531 199 432T317 257T492 139T705 96ZM702 236Q599 236 523 286T405 428T363 648Q363 780 407 870T527 1006T702 1052Q836 1052 912 987T1013
816L875 790Q855 856 811 896T702 936Q647 936 602 904T529 807T502 648Q502 559 525 493T592 391T702 355Q784 355 829 398T875 510H1013Q1013 380 929 308T702 236Z"/>
            <glyph unicode="&#xaa;" horiz-adv-x="1150" d="M801 0L774 228V624Q774 734 729 785T581 836Q523 836 479 819T410 769T385 686H151Q151 795 203 862T352 961T581 993Q703 993 794 954T936 831T987 617V0H801ZM481 -27Q358 -27 277 16T154 129T113 279Q113 373
161 435T297 527T501 558Q580 558 651 545T794 511V384Q737 404 669 415T543 426Q455 426 398 393T340 279Q340 221 386 179T532 137Q607 137 661 170T744 253T774 353H825Q825 251 786 165T669 26T481 -27Z"/>
            <glyph unicode="&#xab;" horiz-adv-x="1216"
                   d="M296 507L656 861L509 968L96 537L509 106L656 213L296 567V507ZM760 507L1120 861L973 968L560 537L973 106L1120 213L760 567V507Z"/>
            <glyph unicode="&#xac;" horiz-adv-x="1200" d="M222 664H924V296H781V552L826 502H222V664Z"/>
            <glyph unicode="&#xad;" horiz-adv-x="1200" d="M87 504V690H644V504H87Z"/>
            <glyph unicode="&#xae;" horiz-adv-x="1409" d="M705 -12Q569 -12 450 39T241 180T99 389T48 644Q48 780 99 898T240 1107T450 1249T705 1301Q840 1301 959 1250T1168 1108T1310 899T1361 644Q1361 508 1310 389T1169 180T959 39T705 -12ZM705 96Q819 96 918 138T1092
256T1210 431T1253 644Q1253 758 1211 857T1093 1031T918 1150T705 1193Q592 1193 493 1150T318 1032T199 857T156 644Q156 531 199 432T317 257T492 139T705 96ZM860 287L660 628H790L1017 287H860ZM457 287V1022H725Q855 1022 924 961T993 799Q993 701 924 640T725
578H578V287H457ZM578 660H713Q790 660 829 696T868 789Q868 847 832 882T725 918H578V660Z"/>
            <glyph unicode="&#xaf;" horiz-adv-x="865" d="M96 1343H769V1168H96V1343Z"/>
            <glyph unicode="&#xb0;" horiz-adv-x="749" d="M375 966Q295 966 229 1005T123 1110T84 1257Q84 1338 123 1403T228 1508T375 1547Q455 1547 521 1508T626 1404T665 1257Q665 1177 626 1111T521 1005T375 966ZM375 1109Q436 1109 479 1152T522 1257Q522 1318 479
1361T375 1404Q314 1404 271 1361T227 1257Q227 1196 270 1153T375 1109Z"/>
            <glyph unicode="&#xb1;" horiz-adv-x="1001"
                   d="M416 1084H585V771H871V632H585V320H416V632H130V771H416V1084ZM150 161H853V0H150V161Z"/>
            <glyph unicode="&#xb2;" horiz-adv-x="814" d="M122 521V649Q122 714 142 759T202 835T300 889L457 949Q510 971 536 1003T563 1084Q563 1133 528 1165T429 1198Q367 1198 326 1169T279 1082H136Q139 1158 177 1209T280 1285T427 1311Q504 1311 566 1282T665 1200T701
1078Q701 1019 679 974T614 895T507 836L348 773Q298 755 275 730T251 666V638H696V521H122Z"/>
            <glyph unicode="&#xb3;" horiz-adv-x="819" d="M409 505Q348 505 292 521T191 570T120 651T94 763H228Q230 719 253 687T317 639T409 622Q485 622 528 658T571 749Q571 784 554 810T499 850T404 864H306V966H385Q459 966 501 997T544 1082Q544 1129 509 1162T403
1195Q347 1195 303 1172T245 1091H112Q120 1169 159 1217T259 1288T397 1311Q480 1311 544 1284T645 1208T682 1096Q682 1036 649 993T552 927Q623 904 667 857T711 737Q711 669 674 617T568 535T409 505Z"/>
            <glyph unicode="&#xb4;" horiz-adv-x="699" d="M199 1119L96 1203L460 1570L603 1453L199 1119Z"/>
            <glyph unicode="&#xb5;" horiz-adv-x="1242"
                   d="M838 969H1051V0H838V969ZM168 969H381V373Q381 272 431 220T572 168Q647 168 707 207T803 322T838 505H900Q900 332 854 216T726 41T535 -18Q431 -18 348 20T216 139T168 353V969ZM169 -400V970H382V-400H169Z"/>
            <glyph unicode="&#xb6;" horiz-adv-x="1200"
                   d="M537 475Q321 475 203 582T84 881Q84 1072 202 1179T537 1286H970V1095H654V475H537ZM547 -252V1286H707V-252H547ZM842 -252V1286H1002V-252H842Z"/>
            <glyph unicode="&#xb7;" horiz-adv-x="409"
                   d="M51 526Q51 588 93 630T201 673Q267 673 311 631T356 526Q356 465 312 424T201 383Q136 383 94 424T51 526Z"/>
            <glyph unicode="&#xb8;" horiz-adv-x="627"
                   d="M96 -364L128 -286Q197 -320 251 -324T338 -311T374 -260Q377 -230 353 -207T287 -167T190 -138L266 72L366 59L296 -133L264 -73Q359 -90 419 -119T506 -188T531 -272Q527 -330 482 -365T369 -412T229 -412T96 -364Z"/>
            <glyph unicode="&#xb9;" horiz-adv-x="532"
                   d="M242 1293H340V514H212V1140Q181 1124 150 1116T87 1106V1230Q128 1234 166 1249T242 1293Z"/>
            <glyph unicode="&#xba;" horiz-adv-x="1121" d="M562 -27Q430 -27 325 30T158 200T96 482Q96 654 158 767T325 936T562 993Q692 993 797 937T963 767T1025 482Q1025 313 964 200T797 30T562 -27ZM555 159Q632 159 689 196T779 306T811 482Q811 641 748 725T569
809Q492 809 434 772T344 662T312 482Q312 326 376 243T555 159Z"/>
            <glyph unicode="&#xbb;" horiz-adv-x="1216"
                   d="M920 507L560 861L707 968L1120 537L707 106L560 213L920 567V507ZM456 507L96 861L243 968L656 537L243 106L96 213L456 567V507Z"/>
            <glyph unicode="&#xbc;" horiz-adv-x="1830" d="M242 1379H340V600H211V1226Q181 1210 150 1201T87 1192V1316Q127 1320 165 1335T242 1379ZM248 -21L1219 1371H1386L412 -21H248ZM1540 783H1662V286H1797V176H1662V0H1536V176H1140V274L1540 783ZM1541 591L1293
274H1541V591Z"/>
            <glyph unicode="&#xbd;" horiz-adv-x="1907" d="M242 1379H340V600H211V1226Q181 1210 150 1201T87 1192V1316Q127 1320 165 1335T242 1379ZM248 -21L1219 1371H1386L412 -21H248ZM1216 0V128Q1216 226 1261 280T1394 367L1550 429Q1604 450 1630 483T1656 564Q1656
613 1622 645T1523 678Q1460 678 1419 648T1372 561H1230Q1232 637 1270 687T1373 764T1521 790Q1598 790 1660 761T1758 680T1795 558Q1795 468 1747 411T1601 315L1441 253Q1391 234 1368 209T1345 145V118H1790V0H1216Z"/>
            <glyph unicode="&#xbe;" horiz-adv-x="2117" d="M409 573Q329 573 257 602T140 689T95 830H228Q232 765 282 728T409 690Q486 690 529 726T572 817Q572 870 532 901T405 933H306V1034H385Q460 1034 502 1065T544 1150Q544 1198 509 1230T403 1263Q347 1263 304
1240T246 1159H112Q125 1275 204 1327T398 1379Q522 1379 602 1320T682 1164Q682 1105 649 1061T553 995Q623 972 667 925T711 806Q711 704 629 639T409 573ZM535 -21L1506 1371H1673L699 -21H535ZM1827 783H1949V286H2084V176H1949V0H1823V176H1427V274L1827 783ZM1828
591L1580 274H1828V591Z"/>
            <glyph unicode="&#xbf;" horiz-adv-x="1023" d="M651 907V824Q651 737 631 681T568 586T451 509Q387 476 351 448T300 388T285 314Q285 246 339 202T489 157Q599 157 658 204T728 332H951Q939 166 824 65T497 -36Q359 -36 259 11T105 138T51 316Q51 420 103 491T268
620Q334 655 371 684T423 750T438 842V907H651ZM539 1302Q606 1302 648 1261T690 1159Q690 1098 648 1056T540 1013Q474 1013 430 1055T385 1158Q385 1218 429 1260T539 1302Z"/>
            <glyph unicode="&#xc0;" horiz-adv-x="1222"
                   d="M46 0L485 1286H751L1175 0H950L856 292H369L272 0H46ZM423 454H804L615 1031L423 454ZM772 1437L368 1771L512 1888L875 1521L772 1437Z"/>
            <glyph unicode="&#xc1;" horiz-adv-x="1222"
                   d="M46 0L485 1286H751L1175 0H950L856 292H369L272 0H46ZM423 454H804L615 1031L423 454ZM558 1434L455 1518L819 1885L962 1768L558 1434Z"/>
            <glyph unicode="&#xc2;" horiz-adv-x="1222"
                   d="M46 0L485 1286H751L1175 0H950L856 292H369L272 0H46ZM423 454H804L615 1031L423 454ZM402 1414L276 1514L621 1821L967 1514L841 1414L583 1654H658L402 1414Z"/>
            <glyph unicode="&#xc3;" horiz-adv-x="1222" d="M46 0L485 1286H751L1175 0H950L856 292H369L272 0H46ZM423 454H804L615 1031L423 454ZM370 1438L284 1490Q308 1605 361 1668T488 1732Q516 1732 546 1722T634 1682Q688 1654 713 1643T762 1632Q791 1632 819 1656T868
1732L958 1672Q944 1603 914 1550T845 1468T767 1438Q732 1438 698 1451T604 1495Q554 1522 532 1531T488 1540Q456 1540 427 1519T370 1438Z"/>
            <glyph unicode="&#xc4;" horiz-adv-x="1222" d="M46 0L485 1286H751L1175 0H950L856 292H369L272 0H46ZM423 454H804L615 1031L423 454ZM806 1459Q752 1459 714 1494T676 1582Q676 1635 714 1671T806 1707Q862 1707 899 1671T937 1582Q937 1530 900 1495T806 1459ZM436
1459Q379 1459 343 1494T306 1580Q306 1635 342 1670T436 1705Q493 1705 530 1670T568 1580Q568 1530 531 1495T436 1459Z"/>
            <glyph unicode="&#xc5;" horiz-adv-x="1222" d="M46 0L485 1286H751L1175 0H950L856 292H369L272 0H46ZM423 454H804L615 1031L423 454ZM622 1393Q560 1393 509 1423T426 1505T395 1619Q395 1682 426 1733T508 1816T622 1847Q685 1847 736 1816T819 1734T850 1619Q850
1557 819 1506T737 1424T622 1393ZM622 1537Q657 1537 681 1561T705 1619Q705 1655 681 1678T622 1702Q588 1702 564 1679T540 1619Q540 1585 564 1561T622 1537Z"/>
            <glyph unicode="&#xc6;" horiz-adv-x="1742"
                   d="M1588 1286V1102H992L1029 1135V652L992 732H1551V548H992L1029 607V92L992 187H1588V0H816V365L853 292H343L446 359L303 0H82L594 1286H1588ZM853 454L816 393L814 1132L853 1102H688L773 1181L463 403L405 454H853Z"/>
            <glyph unicode="&#xc7;" horiz-adv-x="1255" d="M652 -27Q483 -27 358 55T165 288T96 647Q96 864 168 1012T366 1235T652 1311Q872 1311 998 1204T1163 925L935 882Q901 988 828 1053T652 1118Q562 1118 488 1066T370 909T326 647Q326 502 363 394T473 227T652
168Q785 168 860 239T935 422H1163Q1163 280 1101 180T924 27T652 -27ZM463 -364L495 -286Q564 -320 618 -324T705 -311T741 -260Q744 -230 720 -207T654 -167T557 -138L633 72L733 59L663 -133L631 -73Q726 -90 786 -119T873 -188T898 -272Q894 -330 849 -365T736
-412T596 -412T463 -364Z"/>
            <glyph unicode="&#xc8;" horiz-adv-x="1159"
                   d="M189 0V1286H1005V1102H402V737H969V553H402V186H1005V0H189ZM730 1437L326 1771L470 1888L833 1521L730 1437Z"/>
            <glyph unicode="&#xc9;" horiz-adv-x="1159"
                   d="M189 0V1286H1005V1102H402V737H969V553H402V186H1005V0H189ZM516 1434L413 1518L777 1885L920 1768L516 1434Z"/>
            <glyph unicode="&#xca;" horiz-adv-x="1159"
                   d="M189 0V1286H1005V1102H402V737H969V553H402V186H1005V0H189ZM359 1414L233 1514L578 1821L924 1514L798 1414L540 1654H615L359 1414Z"/>
            <glyph unicode="&#xcb;" horiz-adv-x="1159" d="M189 0V1286H1005V1102H402V737H969V553H402V186H1005V0H189ZM763 1459Q709 1459 671 1494T633 1582Q633 1635 671 1671T763 1707Q819 1707 856 1671T894 1582Q894 1530 857 1495T763 1459ZM393 1459Q336 1459 300
1494T263 1580Q263 1635 299 1670T393 1705Q450 1705 487 1670T525 1580Q525 1530 488 1495T393 1459Z"/>
            <glyph unicode="&#xcc;" horiz-adv-x="595"
                   d="M191 0V1286H404V0H191ZM448 1437L44 1771L188 1888L551 1521L448 1437Z"/>
            <glyph unicode="&#xcd;" horiz-adv-x="595"
                   d="M191 0V1286H404V0H191ZM234 1434L131 1518L495 1885L638 1768L234 1434Z"/>
            <glyph unicode="&#xce;" horiz-adv-x="595"
                   d="M191 0V1286H404V0H191ZM77 1414L-49 1514L296 1821L642 1514L516 1414L258 1654H333L77 1414Z"/>
            <glyph unicode="&#xcf;" horiz-adv-x="595" d="M191 0V1286H404V0H191ZM481 1459Q427 1459 389 1494T351 1582Q351 1635 389 1671T481 1707Q537 1707 574 1671T612 1582Q612 1530 575 1495T481 1459ZM111 1459Q54 1459 18 1494T-19 1580Q-19 1635 17 1670T111
1705Q168 1705 205 1670T243 1580Q243 1530 206 1495T111 1459Z"/>
            <glyph unicode="&#xd0;" horiz-adv-x="1358"
                   d="M44 735H675V551H44V735ZM191 1286H596Q792 1286 938 1207T1165 984T1247 642Q1247 448 1166 304T938 80T596 0H191V1286ZM404 1094V190H596Q726 190 820 249T966 410T1018 642Q1018 774 967 875T821 1035T596 1094H404Z"/>
            <glyph unicode="&#xd1;" horiz-adv-x="1415" d="M187 1286H425L1028 329H1011V1286H1224V0H1003L366 1007H400V0H187V1286ZM456 1438L370 1490Q394 1605 447 1668T574 1732Q602 1732 632 1722T720 1682Q774 1654 799 1643T848 1632Q877 1632 905 1656T954 1732L1044
1672Q1030 1603 1000 1550T931 1468T853 1438Q818 1438 784 1451T690 1495Q640 1522 618 1531T574 1540Q542 1540 513 1519T456 1438Z"/>
            <glyph unicode="&#xd2;" horiz-adv-x="1344" d="M672 -27Q504 -27 374 48T170 272T96 643Q96 869 170 1017T374 1238T672 1311Q841 1311 971 1237T1174 1014T1248 643Q1248 418 1175 269T971 47T672 -27ZM672 167Q836 167 932 289T1028 645Q1028 871 932 995T672
1120Q510 1120 414 995T317 643Q317 411 413 289T672 167ZM827 1437L423 1771L567 1888L930 1521L827 1437Z"/>
            <glyph unicode="&#xd3;" horiz-adv-x="1344" d="M672 -27Q504 -27 374 48T170 272T96 643Q96 869 170 1017T374 1238T672 1311Q841 1311 971 1237T1174 1014T1248 643Q1248 418 1175 269T971 47T672 -27ZM672 167Q836 167 932 289T1028 645Q1028 871 932 995T672
1120Q510 1120 414 995T317 643Q317 411 413 289T672 167ZM614 1434L511 1518L875 1885L1018 1768L614 1434Z"/>
            <glyph unicode="&#xd4;" horiz-adv-x="1344" d="M672 -27Q504 -27 374 48T170 272T96 643Q96 869 170 1017T374 1238T672 1311Q841 1311 971 1237T1174 1014T1248 643Q1248 418 1175 269T971 47T672 -27ZM672 167Q836 167 932 289T1028 645Q1028 871 932 995T672
1120Q510 1120 414 995T317 643Q317 411 413 289T672 167ZM457 1414L331 1514L676 1821L1022 1514L896 1414L638 1654H713L457 1414Z"/>
            <glyph unicode="&#xd5;" horiz-adv-x="1344" d="M672 -27Q504 -27 374 48T170 272T96 643Q96 869 170 1017T374 1238T672 1311Q841 1311 971 1237T1174 1014T1248 643Q1248 418 1175 269T971 47T672 -27ZM672 167Q836 167 932 289T1028 645Q1028 871 932 995T672
1120Q510 1120 414 995T317 643Q317 411 413 289T672 167ZM426 1438L340 1490Q364 1605 417 1668T544 1732Q572 1732 602 1722T690 1682Q744 1654 769 1643T818 1632Q847 1632 875 1656T924 1732L1014 1672Q1000 1603 970 1550T901 1468T823 1438Q788 1438 754
1451T660 1495Q610 1522 588 1531T544 1540Q512 1540 483 1519T426 1438Z"/>
            <glyph unicode="&#xd6;" horiz-adv-x="1344" d="M672 -27Q504 -27 374 48T170 272T96 643Q96 869 170 1017T374 1238T672 1311Q841 1311 971 1237T1174 1014T1248 643Q1248 418 1175 269T971 47T672 -27ZM672 167Q836 167 932 289T1028 645Q1028 871 932 995T672
1120Q510 1120 414 995T317 643Q317 411 413 289T672 167ZM861 1459Q807 1459 769 1494T731 1582Q731 1635 769 1671T861 1707Q917 1707 954 1671T992 1582Q992 1530 955 1495T861 1459ZM491 1459Q434 1459 398 1494T361 1580Q361 1635 397 1670T491 1705Q548 1705
585 1670T623 1580Q623 1530 586 1495T491 1459Z"/>
            <glyph unicode="&#xd7;" horiz-adv-x="1079"
                   d="M272 96L123 247L389 515L123 779L272 931L539 664L806 931L958 779L689 515L958 247L806 96L539 363L272 96Z"/>
            <glyph unicode="&#xd8;" horiz-adv-x="1344" d="M69 0L1071 1287H1253L248 0H69ZM671 -27Q503 -27 373 48T170 272T96 643Q96 869 169 1017T373 1238T671 1311Q840 1311 970 1237T1174 1014T1248 643Q1248 418 1174 269T970 47T671 -27ZM671 167Q835 167 931 289T1027
645Q1027 871 931 995T671 1120Q510 1120 413 995T316 643Q316 411 413 289T671 167Z"/>
            <glyph unicode="&#xd9;" horiz-adv-x="1359"
                   d="M168 1286H381V480Q381 315 464 242T681 168Q813 168 896 241T979 480V1286H1192V480Q1192 318 1131 205T955 32T681 -27Q521 -27 407 32T230 204T168 480V1286ZM830 1437L426 1771L570 1888L933 1521L830 1437Z"/>
            <glyph unicode="&#xda;" horiz-adv-x="1359"
                   d="M168 1286H381V480Q381 315 464 242T681 168Q813 168 896 241T979 480V1286H1192V480Q1192 318 1131 205T955 32T681 -27Q521 -27 407 32T230 204T168 480V1286ZM616 1434L513 1518L877 1885L1020 1768L616 1434Z"/>
            <glyph unicode="&#xdb;" horiz-adv-x="1359" d="M168 1286H381V480Q381 315 464 242T681 168Q813 168 896 241T979 480V1286H1192V480Q1192 318 1131 205T955 32T681 -27Q521 -27 407 32T230 204T168 480V1286ZM460 1414L334 1514L679 1821L1025 1514L899 1414L641
1654H716L460 1414Z"/>
            <glyph unicode="&#xdc;" horiz-adv-x="1359" d="M168 1286H381V480Q381 315 464 242T681 168Q813 168 896 241T979 480V1286H1192V480Q1192 318 1131 205T955 32T681 -27Q521 -27 407 32T230 204T168 480V1286ZM864 1459Q810 1459 772 1494T734 1582Q734 1635
772 1671T864 1707Q920 1707 957 1671T995 1582Q995 1530 958 1495T864 1459ZM494 1459Q437 1459 401 1494T364 1580Q364 1635 400 1670T494 1705Q551 1705 588 1670T626 1580Q626 1530 589 1495T494 1459Z"/>
            <glyph unicode="&#xdd;" horiz-adv-x="1151"
                   d="M15 1286H269L593 713H549L883 1286H1135L675 530V0H462V530L15 1286ZM513 1434L410 1518L774 1885L917 1768L513 1434Z"/>
            <glyph unicode="&#xde;" horiz-adv-x="1146"
                   d="M185 0V1286H400V1028L352 1076H628Q843 1076 962 969T1081 669Q1081 479 962 372T628 265H352L400 313V0H185ZM400 404L352 451H628Q743 451 802 512T862 669Q862 768 803 830T628 892H352L400 941V404Z"/>
            <glyph unicode="&#xdf;" horiz-adv-x="1277" d="M1024 1076Q1024 1002 998 953T937 869T876 803T849 737Q849 698 881 669T962 609T1058 540T1139 445T1172 305Q1172 205 1120 131T985 16T806 -25Q749 -25 679 -10T553 33L555 206Q614 166 668 147T777 128Q835
128 870 149T922 204T938 281Q938 346 908 391T833 471T744 538T669 610T639 703Q639 757 667 796T734 869T800 945T829 1044Q829 1119 772 1164T620 1209Q505 1209 456 1139T406 912V0H191V916Q191 1067 243 1169T393 1324T631 1377Q755 1377 843 1339T977 1232T1024
1076Z"/>
            <glyph unicode="&#xe0;" horiz-adv-x="1150" d="M801 0L774 228V624Q774 734 729 785T581 836Q523 836 479 819T410 769T385 686H151Q151 795 203 862T352 961T581 993Q703 993 794 954T936 831T987 617V0H801ZM481 -27Q358 -27 277 16T154 129T113 279Q113 373
161 435T297 527T501 558Q580 558 651 545T794 511V384Q737 404 669 415T543 426Q455 426 398 393T340 279Q340 221 386 179T532 137Q607 137 661 170T744 253T774 353H825Q825 251 786 165T669 26T481 -27ZM725 1119L321 1453L465 1570L828 1203L725 1119Z"/>
            <glyph unicode="&#xe1;" horiz-adv-x="1150" d="M801 0L774 228V624Q774 734 729 785T581 836Q523 836 479 819T410 769T385 686H151Q151 795 203 862T352 961T581 993Q703 993 794 954T936 831T987 617V0H801ZM481 -27Q358 -27 277 16T154 129T113 279Q113 373
161 435T297 527T501 558Q580 558 651 545T794 511V384Q737 404 669 415T543 426Q455 426 398 393T340 279Q340 221 386 179T532 137Q607 137 661 170T744 253T774 353H825Q825 251 786 165T669 26T481 -27ZM511 1115L408 1199L772 1566L915 1449L511 1115Z"/>
            <glyph unicode="&#xe2;" horiz-adv-x="1150" d="M801 0L774 228V624Q774 734 729 785T581 836Q523 836 479 819T410 769T385 686H151Q151 795 203 862T352 961T581 993Q703 993 794 954T936 831T987 617V0H801ZM481 -27Q358 -27 277 16T154 129T113 279Q113 373
161 435T297 527T501 558Q580 558 651 545T794 511V384Q737 404 669 415T543 426Q455 426 398 393T340 279Q340 221 386 179T532 137Q607 137 661 170T744 253T774 353H825Q825 251 786 165T669 26T481 -27ZM355 1095L229 1195L574 1502L920 1195L794 1095L536
1335H611L355 1095Z"/>
            <glyph unicode="&#xe3;" horiz-adv-x="1150" d="M801 0L774 228V624Q774 734 729 785T581 836Q523 836 479 819T410 769T385 686H151Q151 795 203 862T352 961T581 993Q703 993 794 954T936 831T987 617V0H801ZM481 -27Q358 -27 277 16T154 129T113 279Q113 373
161 435T297 527T501 558Q580 558 651 545T794 511V384Q737 404 669 415T543 426Q455 426 398 393T340 279Q340 221 386 179T532 137Q607 137 661 170T744 253T774 353H825Q825 251 786 165T669 26T481 -27ZM323 1119L237 1171Q261 1286 314 1349T441 1413Q469
1413 499 1403T587 1363Q641 1335 666 1324T715 1313Q744 1313 772 1337T821 1413L911 1353Q897 1284 867 1231T798 1149T720 1119Q685 1119 651 1132T557 1176Q507 1203 485 1212T441 1221Q409 1221 380 1200T323 1119Z"/>
            <glyph unicode="&#xe4;" horiz-adv-x="1150" d="M801 0L774 228V624Q774 734 729 785T581 836Q523 836 479 819T410 769T385 686H151Q151 795 203 862T352 961T581 993Q703 993 794 954T936 831T987 617V0H801ZM481 -27Q358 -27 277 16T154 129T113 279Q113 373
161 435T297 527T501 558Q580 558 651 545T794 511V384Q737 404 669 415T543 426Q455 426 398 393T340 279Q340 221 386 179T532 137Q607 137 661 170T744 253T774 353H825Q825 251 786 165T669 26T481 -27ZM759 1141Q705 1141 667 1176T629 1264Q629 1317 667
1353T759 1389Q815 1389 852 1353T890 1264Q890 1212 853 1177T759 1141ZM389 1141Q332 1141 296 1176T259 1262Q259 1317 295 1352T389 1387Q446 1387 483 1352T521 1262Q521 1212 484 1177T389 1141Z"/>
            <glyph unicode="&#xe5;" horiz-adv-x="1150" d="M801 0L774 228V624Q774 734 729 785T581 836Q523 836 479 819T410 769T385 686H151Q151 795 203 862T352 961T581 993Q703 993 794 954T936 831T987 617V0H801ZM481 -27Q358 -27 277 16T154 129T113 279Q113 373
161 435T297 527T501 558Q580 558 651 545T794 511V384Q737 404 669 415T543 426Q455 426 398 393T340 279Q340 221 386 179T532 137Q607 137 661 170T744 253T774 353H825Q825 251 786 165T669 26T481 -27ZM575 1075Q513 1075 462 1105T379 1187T348 1301Q348
1364 379 1415T461 1498T575 1529Q638 1529 689 1498T772 1416T803 1301Q803 1239 772 1188T690 1106T575 1075ZM575 1219Q610 1219 634 1243T658 1301Q658 1337 634 1360T575 1384Q541 1384 517 1361T493 1301Q493 1267 517 1243T575 1219Z"/>
            <glyph unicode="&#xe6;" horiz-adv-x="1715" d="M790 302H762V624Q762 732 715 784T571 836Q516 836 474 819T409 769T385 686H151Q151 795 203 862T341 961T531 993Q662 993 749 946T881 809T925 588V430L790 302ZM474 -27Q359 -27 279 14T156 126T113 281Q113
373 160 434T293 527T489 558Q564 558 638 545T782 511V384Q726 404 655 415T534 426Q451 426 396 393T340 283Q340 222 383 180T514 137Q591 137 646 169T732 251T762 353H900Q900 261 851 174T707 30T474 -27ZM1220 -27Q1088 -27 986 40T825 223T766 487Q766
635 824 749T984 928T1214 993Q1325 993 1406 947T1537 823T1606 646T1610 443H931V562H1462L1416 532Q1419 583 1411 634T1380 728T1316 797T1211 823Q1134 823 1081 784T1001 678T973 531V445Q973 358 998 291T1077 184T1210 145Q1283 145 1334 180T1399 288H1615Q1601
194 1546 123T1405 13T1220 -27Z"/>
            <glyph unicode="&#xe7;" horiz-adv-x="1051" d="M549 -27Q430 -27 327 36T160 214T96 484Q96 647 159 761T326 934T549 993Q640 993 710 964T831 886T911 777T951 653L735 645Q716 714 669 758T547 802Q487 802 433 768T346 664T312 484Q312 381 343 310T427 203T547
166Q644 166 689 212T735 339H951Q951 237 904 154T767 22T549 -27ZM347 -362L379 -284Q448 -318 502 -322T589 -309T625 -258Q628 -228 604 -205T538 -165T441 -136L517 74L617 61L547 -131L515 -71Q610 -88 670 -117T757 -186T782 -270Q778 -328 733 -363T620
-410T480 -410T347 -362Z"/>
            <glyph unicode="&#xe8;" horiz-adv-x="1051" d="M544 -27Q420 -27 319 37T157 216T96 483Q96 642 156 756T317 932T544 993Q658 993 740 947T873 823T941 647T946 443H267V562H797L751 532Q754 583 746 634T716 728T652 797T547 823Q470 823 417 784T336 678T308
531V445Q308 358 334 291T412 184T544 145Q620 145 670 181T734 288H951Q936 194 881 123T740 13T544 -27ZM676 1119L272 1453L416 1570L779 1203L676 1119Z"/>
            <glyph unicode="&#xe9;" horiz-adv-x="1051" d="M544 -27Q420 -27 319 37T157 216T96 483Q96 642 156 756T317 932T544 993Q658 993 740 947T873 823T941 647T946 443H267V562H797L751 532Q754 583 746 634T716 728T652 797T547 823Q470 823 417 784T336 678T308
531V445Q308 358 334 291T412 184T544 145Q620 145 670 181T734 288H951Q936 194 881 123T740 13T544 -27ZM463 1115L360 1199L724 1566L867 1449L463 1115Z"/>
            <glyph unicode="&#xea;" horiz-adv-x="1051" d="M544 -27Q420 -27 319 37T157 216T96 483Q96 642 156 756T317 932T544 993Q658 993 740 947T873 823T941 647T946 443H267V562H797L751 532Q754 583 746 634T716 728T652 797T547 823Q470 823 417 784T336 678T308
531V445Q308 358 334 291T412 184T544 145Q620 145 670 181T734 288H951Q936 194 881 123T740 13T544 -27ZM306 1351L180 1451L525 1758L871 1451L745 1351L487 1591H562L306 1351Z"/>
            <glyph unicode="&#xeb;" horiz-adv-x="1051" d="M544 -27Q420 -27 319 37T157 216T96 483Q96 642 156 756T317 932T544 993Q658 993 740 947T873 823T941 647T946 443H267V562H797L751 532Q754 583 746 634T716 728T652 797T547 823Q470 823 417 784T336 678T308
531V445Q308 358 334 291T412 184T544 145Q620 145 670 181T734 288H951Q936 194 881 123T740 13T544 -27ZM710 1141Q656 1141 618 1176T580 1264Q580 1317 618 1353T710 1389Q766 1389 803 1353T841 1264Q841 1212 804 1177T710 1141ZM340 1141Q283 1141 247 1176T210
1262Q210 1317 246 1352T340 1387Q397 1387 434 1352T472 1262Q472 1212 435 1177T340 1141Z"/>
            <glyph unicode="&#xec;" horiz-adv-x="639"
                   d="M208 0V969H421V0H208ZM720 1119L316 1453L460 1570L823 1203L720 1119Z"/>
            <glyph unicode="&#xed;" horiz-adv-x="639"
                   d="M208 0V969H421V0H208ZM250 1371L147 1455L511 1822L654 1705L250 1371Z"/>
            <glyph unicode="&#xee;" horiz-adv-x="639"
                   d="M208 0V969H421V0H208ZM350 1351L224 1451L569 1758L915 1451L789 1351L531 1591H606L350 1351Z"/>
            <glyph unicode="&#xef;" horiz-adv-x="639" d="M208 0V969H421V0H208ZM754 1141Q700 1141 662 1176T624 1264Q624 1317 662 1353T754 1389Q810 1389 847 1353T885 1264Q885 1212 848 1177T754 1141ZM384 1141Q327 1141 291 1176T254 1262Q254 1317 290 1352T384
1387Q441 1387 478 1352T516 1262Q516 1212 479 1177T384 1141Z"/>
            <glyph unicode="&#xf0;" horiz-adv-x="1130" d="M549 -27Q429 -27 329 37T168 217T107 489Q107 642 164 755T317 930T524 993Q639 993 724 931T856 761T903 517H833Q832 614 793 677T696 771T575 802Q503 802 446 763T355 654T322 486Q322 389 355 318T445 206T577
166Q657 166 711 210T796 329T831 497Q837 652 818 793T747 1062T606 1305T381 1524L557 1645Q680 1537 771 1414T921 1159T1010 894T1039 633Q1039 475 1000 353T892 146T735 17T549 -27ZM426 1113L364 1244L973 1546L1035 1415L426 1113Z"/>
            <glyph unicode="&#xf1;" horiz-adv-x="1235" d="M861 0V566Q861 683 805 742T656 802Q581 802 524 761T436 638T404 439H331Q331 622 377 745T508 930T712 993Q830 993 910 940T1032 791T1073 566V0H861ZM191 0V966H376L404 766V0H191ZM384 1129L298 1181Q322
1296 375 1359T502 1423Q530 1423 560 1413T648 1373Q702 1345 727 1334T776 1323Q805 1323 833 1347T882 1423L972 1363Q958 1294 928 1241T859 1159T781 1129Q746 1129 712 1142T618 1186Q568 1213 546 1222T502 1231Q470 1231 441 1210T384 1129Z"/>
            <glyph unicode="&#xf2;" horiz-adv-x="1121" d="M562 -27Q430 -27 325 30T158 200T96 482Q96 654 158 767T325 936T562 993Q692 993 797 937T963 767T1025 482Q1025 313 964 200T797 30T562 -27ZM555 159Q632 159 689 196T779 306T811 482Q811 641 748 725T569
809Q492 809 434 772T344 662T312 482Q312 326 376 243T555 159ZM711 1119L307 1453L451 1570L814 1203L711 1119Z"/>
            <glyph unicode="&#xf3;" horiz-adv-x="1121" d="M562 -27Q430 -27 325 30T158 200T96 482Q96 654 158 767T325 936T562 993Q692 993 797 937T963 767T1025 482Q1025 313 964 200T797 30T562 -27ZM555 159Q632 159 689 196T779 306T811 482Q811 641 748 725T569
809Q492 809 434 772T344 662T312 482Q312 326 376 243T555 159ZM498 1115L395 1199L759 1566L902 1449L498 1115Z"/>
            <glyph unicode="&#xf4;" horiz-adv-x="1121" d="M562 -27Q430 -27 325 30T158 200T96 482Q96 654 158 767T325 936T562 993Q692 993 797 937T963 767T1025 482Q1025 313 964 200T797 30T562 -27ZM555 159Q632 159 689 196T779 306T811 482Q811 641 748 725T569
809Q492 809 434 772T344 662T312 482Q312 326 376 243T555 159ZM341 1351L215 1451L560 1758L906 1451L780 1351L522 1591H597L341 1351Z"/>
            <glyph unicode="&#xf5;" horiz-adv-x="1121" d="M562 -27Q430 -27 325 30T158 200T96 482Q96 654 158 767T325 936T562 993Q692 993 797 937T963 767T1025 482Q1025 313 964 200T797 30T562 -27ZM555 159Q632 159 689 196T779 306T811 482Q811 641 748 725T569
809Q492 809 434 772T344 662T312 482Q312 326 376 243T555 159ZM310 1119L224 1171Q248 1286 301 1349T428 1413Q456 1413 486 1403T574 1363Q628 1335 653 1324T702 1313Q731 1313 759 1337T808 1413L898 1353Q884 1284 854 1231T785 1149T707 1119Q672 1119
638 1132T544 1176Q494 1203 472 1212T428 1221Q396 1221 367 1200T310 1119Z"/>
            <glyph unicode="&#xf6;" horiz-adv-x="1121" d="M562 -27Q430 -27 325 30T158 200T96 482Q96 654 158 767T325 936T562 993Q692 993 797 937T963 767T1025 482Q1025 313 964 200T797 30T562 -27ZM555 159Q632 159 689 196T779 306T811 482Q811 641 748 725T569
809Q492 809 434 772T344 662T312 482Q312 326 376 243T555 159ZM745 1141Q691 1141 653 1176T615 1264Q615 1317 653 1353T745 1389Q801 1389 838 1353T876 1264Q876 1212 839 1177T745 1141ZM375 1141Q318 1141 282 1176T245 1262Q245 1317 281 1352T375 1387Q432
1387 469 1352T507 1262Q507 1212 470 1177T375 1141Z"/>
            <glyph unicode="&#xf7;" horiz-adv-x="1038" d="M142 446V634H895V446H142ZM517 96Q463 96 427 131T391 217Q391 268 427 303T517 338Q573 338 610 303T647 217Q647 166 610 131T517 96ZM517 737Q463 737 427 771T391 858Q391 908 427 943T517 979Q573 979 610
944T647 858Q647 805 610 771T517 737Z"/>
            <glyph unicode="&#xf8;" horiz-adv-x="1121" d="M562 -27Q430 -27 325 30T158 200T96 482Q96 654 158 767T325 936T562 993Q692 993 797 937T963 767T1025 482Q1025 313 964 200T797 30T562 -27ZM555 159Q632 159 689 196T779 306T811 482Q811 641 748 725T569
809Q492 809 434 772T344 662T312 482Q312 326 376 243T555 159ZM92 0L907 975H1106L288 0H92Z"/>
            <glyph unicode="&#xf9;" horiz-adv-x="1242" d="M838 969H1051V0H838V969ZM168 969H381V373Q381 272 431 220T572 168Q647 168 707 207T803 322T838 505H900Q900 332 854 216T726 41T535 -18Q431 -18 348 20T216 139T168 353V969ZM788 1119L384 1453L528 1570L891
1203L788 1119Z"/>
            <glyph unicode="&#xfa;" horiz-adv-x="1242" d="M838 969H1051V0H838V969ZM168 969H381V373Q381 272 431 220T572 168Q647 168 707 207T803 322T838 505H900Q900 332 854 216T726 41T535 -18Q431 -18 348 20T216 139T168 353V969ZM574 1115L471 1199L835 1566L978
1449L574 1115Z"/>
            <glyph unicode="&#xfb;" horiz-adv-x="1242" d="M838 969H1051V0H838V969ZM168 969H381V373Q381 272 431 220T572 168Q647 168 707 207T803 322T838 505H900Q900 332 854 216T726 41T535 -18Q431 -18 348 20T216 139T168 353V969ZM418 1095L292 1195L637 1502L983
1195L857 1095L599 1335H674L418 1095Z"/>
            <glyph unicode="&#xfc;" horiz-adv-x="1242" d="M838 969H1051V0H838V969ZM168 969H381V373Q381 272 431 220T572 168Q647 168 707 207T803 322T838 505H900Q900 332 854 216T726 41T535 -18Q431 -18 348 20T216 139T168 353V969ZM822 1141Q768 1141 730 1176T692
1264Q692 1317 730 1353T822 1389Q878 1389 915 1353T953 1264Q953 1212 916 1177T822 1141ZM452 1141Q395 1141 359 1176T322 1262Q322 1317 358 1352T452 1387Q509 1387 546 1352T584 1262Q584 1212 547 1177T452 1141Z"/>
            <glyph unicode="&#xfd;" horiz-adv-x="985" d="M40 966H281L554 186H514L742 966H959L590 -181Q537 -345 456 -422T255 -499Q188 -499 125 -483T-3 -433V-244Q51 -280 102 -296T205 -313Q256 -313 293 -284T356 -206T401 -95L430 0L40 966ZM430 1115L327 1199L691
1566L834 1449L430 1115Z"/>
            <glyph unicode="&#xfe;" horiz-adv-x="1200" d="M662 -27Q555 -27 479 19T363 159T323 391H404Q404 319 436 269T520 193T632 166Q695 166 755 201T854 306T893 484Q893 583 860 654T768 764T636 802Q574 802 521 773T436 690T404 556H323Q323 705 370 802T496
946T670 993Q784 993 884 932T1046 758T1109 484Q1109 323 1046 209T881 34T662 -27ZM191 -473V1286H404V-473H191Z"/>
            <glyph unicode="&#xff;" horiz-adv-x="985" d="M40 966H281L554 186H514L742 966H959L590 -181Q537 -345 456 -422T255 -499Q188 -499 125 -483T-3 -433V-244Q51 -280 102 -296T205 -313Q256 -313 293 -284T356 -206T401 -95L430 0L40 966ZM677 1141Q623 1141
585 1176T547 1264Q547 1317 585 1353T677 1389Q733 1389 770 1353T808 1264Q808 1212 771 1177T677 1141ZM307 1141Q250 1141 214 1176T177 1262Q177 1317 213 1352T307 1387Q364 1387 401 1352T439 1262Q439 1212 402 1177T307 1141Z"/>
            <glyph unicode="&#x2013;" horiz-adv-x="1020" d="M110 504V690H910V504H110Z"/>
            <glyph unicode="&#x2014;" horiz-adv-x="1511" d="M110 504V690H1403V504H110Z"/>
            <glyph unicode="&#x2018;" horiz-adv-x="508"
                   d="M247 781Q195 781 156 808T94 881T72 980Q72 1071 132 1154T294 1289L443 1206Q380 1176 333 1135T267 1039Q322 1031 358 1000T395 915Q395 860 354 821T247 781Z"/>
            <glyph unicode="&#x2019;" horiz-adv-x="508"
                   d="M199 781L50 864Q113 895 161 936T225 1031Q170 1039 134 1071T98 1157Q98 1214 141 1251T248 1289Q302 1289 340 1262T399 1189T419 1090Q419 998 359 916T199 781Z"/>
            <glyph unicode="&#x201a;" horiz-adv-x="533"
                   d="M230 -257L72 -177Q136 -145 183 -105T246 -10Q194 -1 158 31T121 117Q121 172 162 210T269 248Q349 248 396 191T443 55Q443 -35 387 -120T230 -257Z"/>
            <glyph unicode="&#x201c;" horiz-adv-x="931" d="M645 781Q593 781 554 808T492 881T470 980Q470 1071 530 1154T692 1289L841 1206Q778 1176 731 1135T665 1039Q720 1031 756 1000T793 915Q793 860 752 821T645 781ZM247 781Q195 781 156 808T94 881T72 980Q72
1071 132 1154T294 1289L443 1206Q380 1176 333 1135T267 1039Q322 1031 358 1000T395 915Q395 860 354 821T247 781Z"/>
            <glyph unicode="&#x201d;" horiz-adv-x="919" d="M610 781L461 864Q524 895 572 936T636 1031Q581 1039 545 1071T509 1157Q509 1214 552 1251T659 1289Q713 1289 751 1262T810 1189T830 1090Q830 998 770 916T610 781ZM221 781L72 864Q135 895 183 936T247 1031Q192
1039 156 1071T120 1157Q120 1214 163 1251T270 1289Q324 1289 362 1262T421 1189T441 1090Q441 998 381 916T221 781Z"/>
            <glyph unicode="&#x201e;" horiz-adv-x="986" d="M683 -257L525 -177Q589 -145 636 -105T699 -10Q647 -1 611 31T574 117Q574 172 615 210T722 248Q802 248 849 191T896 55Q896 -35 840 -120T683 -257ZM230 -257L72 -177Q136 -145 183 -105T246 -10Q194 -1 158
31T121 117Q121 172 162 210T269 248Q349 248 396 191T443 55Q443 -35 387 -120T230 -257Z"/>
            <glyph unicode="&#x2022;" horiz-adv-x="621"
                   d="M54 602Q54 715 131 792T327 870Q448 870 529 793T610 602Q610 491 529 416T327 341Q209 341 132 416T54 602Z"/>
            <glyph unicode="&#x2039;" horiz-adv-x="752"
                   d="M296 507L656 861L509 968L96 537L509 106L656 213L296 567V507Z"/>
            <glyph unicode="&#x203a;" horiz-adv-x="752"
                   d="M243 106L96 213L456 567V507L96 861L243 968L656 537L243 106Z"/>
        </font>
</defs>
</svg>
